#TITLE:Endless Story;
#SUBTITLE:[N]hok[Q] Simfile;
#ARTIST:Unknown artist;
#TITLETRANSLIT:;
#SUBTITLETRANSLIT:;
#ARTISTTRANSLIT:;
#CREDIT:[N]hok[Q];
#BANNER:bn.png;
#BACKGROUND:bg.png;
#LYRICSPATH:;
#CDTITLE:cd.png;
#MUSIC:Endless Story.mp3;
#OFFSET:-0.376;
#SAMPLESTART:38.951;
#SAMPLELENGTH:12.000;
#SELECTABLE:YES;
#BPMS:0.000=298.724,1.000=93.500,7.000=93.497,8.000=93.500,15.000=93.497,16.000=93.500,21.000=91.536,21.604=201.806,22.000=187.001,24.000=187.013,25.000=186.989,26.000=187.001,28.000=187.013,29.000=187.001,41.000=186.989,42.000=187.001,44.000=187.013,45.000=187.001,52.000=186.989,53.000=187.001,57.000=187.013,58.000=187.001,60.000=186.989,61.000=187.001,65.000=187.013,66.000=187.001,68.000=186.989,69.000=187.001,73.000=187.013,74.000=187.001,76.000=186.989,77.000=187.001,81.000=187.013,82.000=187.001,84.000=186.989,85.000=187.001,89.000=187.013,90.000=187.001,92.000=186.989,93.000=187.001,97.000=187.013,98.000=187.001,100.000=186.989,101.000=187.001,105.000=187.013,106.000=187.001,108.000=186.989,109.000=187.001,113.000=187.013,114.000=186.989,115.000=187.001,117.000=185.049,117.875=201.907,118.000=163.349,118.333=201.174,118.917=204.604,119.000=170.913,119.750=260.586,120.000=93.500,131.000=79.742,131.688=150.703,132.000=187.001,141.000=187.013,142.000=187.001,144.000=186.977,145.000=50.441,145.771=301.508,146.000=187.001,155.000=187.013,156.000=187.001,235.000=187.013,236.000=186.989,238.000=187.001;
#STOPS:;
#BGCHANGES:0.000=Endless Story.avi=1.000=1=1=0,
242.000=bg.png=1.000=0=0=1,
99999=-nosongbg-=1.000=0=0=0 // don't automatically add -songbackground-
;
// cache tags:
#FIRSTBEAT:1.000;
#LASTBEAT:242.500;
#SONGFILENAME:Songs/sdo pack 6/Endless Story/Endless Story.sm;
#HASMUSIC:1;
#HASBANNER:1;
#MUSICLENGTH:89.304;
// end cache tags

//---------------dance-single - ----------------
#NOTES:
     dance-single:
     :
     Hard:
     23:
     1.000,1.000,1.000,1.000,0.325,444.000,378.000,93.000,0.000,209.000:
0000
0000
0000
0000
1100
0000
0110
0000
0000
0021
0000
0000
0000
0000
1130
0000
,
0000
0000
0000
0000
0000
0000
1002
0000
0000
0000
0000
0000
0000
0000
0000
0000
0000
0000
0000
0000
0000
0113
0000
0000
0000
0000
0000
0000
1100
0000
0000
0000
0000
0000
0000
0000
0110
0000
0000
0000
0000
0000
0000
0000
0011
0000
0000
0000
,
0000
0110
0000
0000
1100
0000
0000
0000
0210
0000
0000
0000
0000
0000
0300
0011
0000
0000
0000
1100
0000
0000
0120
0000
,
0000
0000
0000
0000
0000
1100
0000
0000
0000
0000
0000
0000
0002
0000
0000
0030
0000
0000
0000
1100
0000
0000
0000
0110
,
0003
0000
0000
0011
0000
0000
0110
0000
0000
0000
1100
0000
0000
0110
0000
0000
0000
2002
0000
0000
0000
0000
0000
0000
,
0000
0000
0000
0000
0000
0000
0000
0000
0000
0000
0000
0000
0000
0000
0000
0000
0000
0000
0000
0000
3003
0000
0000
0000
1100
0000
0000
0011
0000
0000
1100
0000
0000
0011
0000
0000
1100
0000
0000
0011
0000
0000
1100
0000
0000
0011
0000
0000
,
2100
0110
3111
0000
0012
1100
1113
0000
,
2011
0110
3111
0000
1120
1100
1131
0000
,
0211
0011
1311
0000
1102
1010
1113
0000
,
0012
1100
1113
0000
2011
0110
3111
0000
,
0012
1100
1113
0000
2100
0110
3111
0000
,
0210
1010
1311
0000
0012
1100
1113
0000
,
1110
0110
0111
0110
1110
0110
0112
2110
,
0113
0000
0110
0000
0111
0000
3110
0001
0001
1000
1000
1000
0111
0000
1100
0000
,
0111
0110
1100
0110
0011
0110
1101
0110
,
0011
0110
1101
1010
0110
0110
1101
0110
,
0011
0110
0111
1010
1100
0110
0111
1010
,
0110
0110
1101
0110
0101
1010
1110
0110
,
1001
0110
0111
1100
0110
1010
1101
0110
,
1001
0011
0111
1100
0110
0011
1110
1100
,
1010
1100
1011
1001
1010
0110
1101
0011
,
0011
0000
1100
0000
0110
0000
0011
0000
0110
0001
0001
1000
1000
0001
0010
0100
,
1011
0110
1101
0110
0110
1001
1110
0101
,
0010
0110
1110
0011
0011
1100
1110
1010
,
1010
0101
0111
1010
1010
1100
1110
0110
,
1001
0110
1101
0110
1010
0110
1011
0110
,
0101
0110
1110
1001
0101
0110
1110
1001
,
0101
0110
1110
0110
0101
1010
1110
0101
,
0110
1010
0111
1001
0110
0101
1110
0101
,
0110
0000
1010
0000
0111
0000
0110
0000
1011
0000
1110
0000
1221
0000
0000
0330
,
1100
0000
0010
0010
0011
0000
1000
1000
0110
0000
0001
0001
0110
0011
0110
1100
,
0110
0000
0001
0001
0110
0000
0010
0010
1001
0000
0110
1100
0110
0011
0011
0011
,
0011
0000
0000
0000
0000
0000
0000
0000
0000
0000
0000
0000
1000
0000
0000
0000
0000
0000
1000
0000
0000
0000
0000
0000
0110
0000
0000
0000
0000
0000
0000
0000
0000
0000
0000
0000
0001
0000
0000
0000
0000
0000
0001
0000
0000
0000
0000
0000
0110
0000
0000
0000
0000
0000
0000
0000
0000
0000
0000
0000
1000
0000
0000
0000
0000
0000
1000
0000
0000
0000
0000
0000
0110
0000
0000
0000
0000
0000
0011
0000
0000
0100
0010
0000
0001
0000
0010
0000
0100
0000
0000
0000
0000
0000
0000
0000
,
2010
0000
0110
0000
0111
3000
1102
0000
0110
0000
1100
0000
1213
0000
0011
0000
,
1310
0000
1100
0000
1021
0000
0101
0000
2101
0030
0110
0000
0112
0000
0110
0000
,
0210
0003
3010
0000
1010
0000
0001
0000
1010
0000
0001
0000
1010
0000
0010
0000
,
1011
0000
1011
0000
1311
1100
0110
0000
2011
0000
0110
3000
1011
0000
0000
0000
,
2110
0000
0110
0000
3112
0000
0000
0003
1210
0000
0011
0300
1011
0000
0000
0000
,
0012
0000
1100
0003
1120
0000
0000
0030
0210
0000
0000
0300
2110
0000
0000
3000
,
0210
0000
1010
0300
1121
0000
0000
0030
0012
0000
0100
0000
1013
0000
0110
0000
,
1012
0000
0110
0003
1112
0000
0000
0003
0112
0000
1100
0003
1110
0000
0000
0000
,
2110
0000
0110
3000
2101
0000
0000
3000
2110
0000
0000
3000
0211
0000
0000
0300
,
0120
0000
1100
0030
1112
0000
0000
0003
0120
0000
0000
0030
0101
0000
0000
0000
,
2110
0000
0101
0000
0112
0000
0000
0000
3003
0000
0110
0000
1110
0000
1010
0001
,
1010
0001
1010
0001
1010
0001
1010
0100
1012
0000
0110
0000
1113
0000
0000
0000
,
0210
0000
1010
0300
1012
0000
0000
0003
2110
0000
0000
3000
0111
0000
0000
0000
,
1210
0000
1010
0300
1012
0000
0000
0003
0120
0000
0000
0030
1102
0000
0000
0003
,
0210
0000
0011
0300
2111
0000
0110
3000
0210
0000
1010
0300
1011
0000
0110
0000
,
0012
0000
1100
0003
1120
0000
0000
0030
0112
0000
0000
0003
0110
0000
0000
0000
,
2100
0000
0110
3000
1210
0000
0000
0300
2110
0000
0000
3000
0120
0000
0000
0030
,
1102
0000
0110
0003
2011
0000
0200
0000
0011
0000
0001
0000
0011
0000
0010
0000
,
0011
0001
0011
0010
0011
0001
3311
0110
,
1110
0001
1010
0100
1010
0001
0110
1000
0112
0000
0110
0000
1113
0000
0000
0000
,
0012
0000
1100
0003
1110
0000
0000
0000
0112
0000
1100
0000
1113
0000
0000
0000
,
0210
0000
1010
0300
1121
0000
0000
0030
0012
0000
1100
0003
0121
0000
0000
0030
,
0210
0000
0011
0300
2101
0000
0000
3000
0210
0000
1010
0300
1011
0000
0110
0000
,
0121
0000
1100
0030
1211
0000
1010
0300
2110
0000
0000
3000
1110
0000
0000
0000
,
0112
0000
1100
0003
1110
0000
0000
0000
0112
0000
0110
0000
1110
0000
0000
0003
,
1110
1010
2221
0000
0001
0000
0001
0000
,
0001
0001
0001
0001
0001
0001
0001
0001
0002
0000
0000
0000
0000
0000
0000
0000
,
0000
0003
0030
0300
3000
0000
0000
0000
,
0000
0000
0000
0000
,
0000
0000
0000
0000
;

//---------------dance-single - ----------------
#NOTES:
     dance-single:
     :
     Medium:
     1:
     0.888,1.000,0.728,0.280,1.000,464.000,65.000,25.000,0.000,1.000:  // measure 1
0000
0000
0000
0000
0000
2010
0000
3000
0000
0020
0000
0000
0000
0030
0200
0000
,  // measure 2
0000
0300
0020
0000
0000
0000
0000
2030
0000
3000
0002
0000
0203
0000
0320
0000
,  // measure 3
0000
2030
0000
3020
0000
0230
0000
0000
0000
0000
0302
0000
0003
2000
0000
3020
,  // measure 4
0000
0000
0000
0230
0000
0000
0000
0000
0302
0000
0000
0000
2003
0000
0000
3000
,  // measure 5
0020
0000
0230
0000
0302
0000
0000
1003
0000
0010
0000
0200
0000
0000
0000
0000
,  // measure 6
0000
0000
0000
0000
0000
0000
0000
0000
0000
0000
0300
1010
0000
0000
0000
0001
,  // measure 7
0100
1000
0000
0010
0000
0010
0100
0000
0010
0100
0000
0001
0001
0000
0000
1000
,  // measure 8
0010
0010
0000
0100
0000
0001
0000
0000
0001
0000
0000
1000
0010
0010
0000
0100
,  // measure 9
0001
0000
0100
0000
0010
1000
0000
0000
0001
0100
0000
0000
0110
0000
0000
0000
,  // measure 10
1001
0110
0101
1010
,  // measure 11
0101
0000
0000
0110
0000
0000
0000
0000
1001
0000
0000
0000
0101
0000
0000
0000
,  // measure 12
1010
0000
0000
0000
0001
0100
0000
0000
0000
1010
0000
0000
0001
0100
0000
0000
,  // measure 13
0000
0110
0000
0110
0000
0110
0000
0110
0000
0110
0000
0110
0110
0000
0110
0000
,  // measure 14
1001
0000
1001
0000
1001
0000
1001
0000
1001
0000
1001
0000
1001
0000
0000
0010
,  // measure 15
0000
0100
0010
0100
0000
0001
1000
0010
0000
0100
0010
0000
0100
0001
1000
0000
,  // measure 16
0010
0100
0000
0010
0100
0001
0000
1000
0010
0000
0110
0000
0100
0001
0000
0001
,  // measure 17
0000
1000
0010
0000
0100
0010
0000
0101
0000
0000
1010
0000
0010
0100
0001
0000
,  // measure 18
0100
0010
0000
1000
0001
0000
0100
0010
0000
0100
0010
0000
1000
0001
0000
0100
,  // measure 19
0010
0000
0100
0010
0000
1000
0001
0000
0100
0010
0000
0010
0100
0000
0001
0100
,  // measure 20
0001
0000
0000
0010
1000
0010
0000
0100
0001
0000
0100
0010
0000
0100
0000
0010
,  // measure 21
0000
0001
0000
1000
0010
0000
0010
0100
0010
0000
0100
0010
0000
0010
0100
0000
,  // measure 22
0001
0000
0001
1000
0010
0000
0010
0000
0100
0001
0000
0101
0000
0000
0100
0010
,  // measure 23
0000
1010
0000
0010
0000
0100
0001
0000
0100
0001
0100
0000
0010
0000
0010
1000
,  // measure 24
0010
0000
0010
0000
0100
0001
0100
0000
0001
0000
1010
0000
0010
0100
0000
0001
,  // measure 25
0100
0001
0000
1000
0010
0000
0100
0010
0000
0101
0000
0000
1010
0000
0010
0100
,  // measure 26
0001
0000
0100
0010
0000
0000
1010
0000
0001
0100
0000
0010
0100
0000
0010
0000
,  // measure 27
0100
0010
0010
1000
0000
0100
0010
0000
0010
0000
0100
0001
0000
0001
0100
0000
,  // measure 28
0010
0100
0010
0010
0000
1000
0000
0100
0010
0000
0010
0000
0100
0010
0000
0100
,  // measure 29
0001
0000
0001
0100
0000
0010
0000
1000
0000
0010
0010
0100
0000
0010
0000
0100
,  // measure 30
0010
0000
0010
0000
0100
0001
0000
0001
1000
0000
0000
0100
0000
0100
0000
0020
,  // measure 31
0000
0000
0130
0100
0100
0000
0010
0010
0000
1000
0000
0010
0000
0000
0010
0000
,  // measure 32
0000
0100
0100
0010
0001
0000
0100
0000
0010
1000
0000
0100
0010
0000
0100
0000
,  // measure 33
0010
0010
0100
0001
0001
0100
0010
0010
0100
0000
1000
0100
0000
0000
0000
0020
,  // measure 34
0000
0000
0000
0000
0030
0200
0000
0000
0000
0300
0000
0010
0000
0010
0000
0000
,  // measure 35
0000
1000
0000
0100
0000
0010
0010
0000
0100
0000
0001
0000
0000
0100
0000
0010
,  // measure 36
0000
0000
0100
0000
0010
0000
0100
0000
0000
0010
0000
0000
0100
0000
0001
0000
,  // measure 37
0000
1000
0001
0000
0100
0001
0001
0000
0000
0010
0000
0000
0000
0100
0000
0010
,  // measure 38
0100
0010
0000
0000
0100
0001
0000
0000
1000
0010
0000
0010
0000
0100
0000
0001
,  // measure 39
0000
0100
0010
0000
1000
0010
0000
0000
0100
0001
0000
0100
0000
0010
1000
0000
,  // measure 40
0010
0000
0100
0000
0001
0000
0000
0100
0010
0000
0100
0000
0010
0000
1000
0000
,  // measure 41
0001
0100
0010
0100
0001
0100
0010
1000
,  // measure 42
0001
0000
0100
0000
0010
0000
1000
0000
0001
0000
0100
0000
0010
0000
0000
0100
,  // measure 43
0001
0000
0100
0000
0010
0000
0000
1000
0000
0001
0000
0100
0000
0010
0000
0100
,  // measure 44
0000
0010
0000
0100
0000
0001
0000
0100
0000
0010
0000
1000
0000
0010
0000
0100
,  // measure 45
0001
0000
0000
0100
0010
0000
1000
0000
0010
0000
0100
0000
0001
0000
0100
0000
,  // measure 46
0000
0010
0100
0000
0001
0000
1000
0000
0010
0000
0100
0000
0010
0000
0100
0000
,  // measure 47
0001
0000
0000
0100
0010
0000
0100
0000
0010
0000
1000
0000
0001
0000
0100
0000
,  // measure 48
0010
0000
0100
0000
0001
0000
0100
0000
0010
0000
1000
0000
0010
0000
0000
0100
,  // measure 49
0001
0000
0100
0000
0010
0000
0000
1000
0000
0001
0000
0100
0010
0000
0000
0100
,  // measure 50
0000
0001
0000
0100
0000
0010
0000
0100
0000
0010
0000
0100
0000
0001
0000
1000
,  // measure 51
0001
0000
0000
0100
0010
0000
0000
0100
0001
0000
0100
0000
0010
0000
1000
0000
,  // measure 52
0010
0000
0100
0000
0001
0000
0100
0001
0000
0000
1000
0010
0000
0000
0010
0100
,  // measure 53
0000
0010
0000
0100
0000
0001
0000
0000
0110
0000
0000
0110
0000
0000
0000
1001
,  // measure 54
0000
1001
0000
0000
0000
0000
0110
0000
0110
0000
0000
0000
0001
0100
0001
0100
,  // measure 55
0000
1101
0000
0000
1010
0000
0000
0000
1010
0000
0000
0000
0101
0000
0000
0000
,  // measure 56
0101
1010
0110
0101
,  // measure 57
0101
0000
0000
1010
0000
0000
0000
0000
0110
0000
0000
0101
0000
0000
0000
0000
,  // measure 58
0101
0000
0000
0000
1010
0000
0000
0000
0110
0000
0000
0000
0001
0100
0000
0000
,  // measure 59
1010
0000
0000
0000
0110
0000
0000
0000
0101
0000
0000
0000
1010
0000
0000
0101
,  // measure 60
0000
0101
0000
1010
0000
0010
0100
0001
0100
0000
0002
0000
0000
0000
0000
0000
,  // measure 61
0000
0000
0000
0000
0000
0003
0000
0000
;
